Star Trek Beyond 2016 Watch Full Online

Star Trek Beyond 2016 Watch Full Online

USS Enterprise crew explore the farthest of uncharted space, where they will meet ruthless new enemy that puts them all the Federation stands for tests.

Director: Justin Lin

Author: Simon Pegg, Doug Jung

Stars: Chris Pine, Zachary Quinto, Karl Urban

Genre: Action | adventure | Sci-Fi | thriller

Country: United States

English

Format: MPEG-4

Format profile: Media Basics

Codec ID: Isom

File size: 758 MiB

Duration: 1h 53mn

Overall bitmode level: variable

inOverall bit rate: 936 Kbps

Encoded Date: 08/09/201614:30:05 UTC

Tagged Date: 08/09/2016 14:30:05 UTC

Writing application: MP4 Tools Lite

Video

ID: 1

Format: AVC

Format / Info: Advanced Video Codec

Format profile: / * * /

landscape format, CABAC: Yes

landscape format, reframes: 3 frame

Codec ID: avc1

Codec ID / Info: Advanced Video Coding

Duration: 1h 53mn

bit rate: 800 Kbps

The maximum bit rate: 3884 Kbps

Width: 720 pixels

Height: 410 pixels

Kuonyeshakipengele ratio: 16: 9

mode frame rate:constant

frame rate: fps

Color Space: YUV

Chromasubsampling 4: 2: 0

Bit Depth: 8 bits

scan type: Progressive

Bits / (Pixel * Frame):

Stream size: 652 MiB (86%)

Title:. Outside the GPAC (Rev Within 5)

Writing library: x264 core 80 r1376 3feaec2

Audio

ID: 2

Format: AAC

Format / Info: Advanced Audio Codec

Format profile: LC

Codec ID: 40

Duration: 1h 53mn

Bit rate mode: Variable

bit rate: 128 Kbps

The maximum bit rate: 149 Kbps

number of channels: 1 channel

Channel positions: Front: C

sample rate: KHz

ModeCompression: Lossy

Stream size: 104MiB (14%)

Encoded Date: 09/08/2016 14:30:18 UTC

Tagged Date: 08/09/2016 14:30:19 UTC

Star Trek Beyond 2016

  1. Star Trek Beyond 2016 watch movie online English 720p
  2. Star Trek Beyond 2016 Movie

Leave a Reply

Your email address will not be published. Required fields are marked *